osu file format v14

[General]
AudioFilename: Grow Slowly.mp3
AudioLeadIn: 1500
PreviewTime: 52220
Countdown: 0
SampleSet: Normal
StackLeniency: 0.7
Mode: 1
LetterboxInBreaks: 0
WidescreenStoryboard: 0

[Editor]
DistanceSpacing: 1
BeatDivisor: 4
GridSize: 8
TimelineZoom: 3.799998

[Metadata]
Title:Grow Slowly (TV Size)
TitleUnicode:Grow Slowly (TV Size)
Artist:Iguchi Yuka
ArtistUnicode:井口裕香
Creator:RenKun
Version:Oni
Source:To Aru Kagaku no Railgun S
Tags:ending majutsu とある科学の超電磁砲 misaka kuroko uiharu saten a certain scientific
BeatmapID:274284
BeatmapSetID:104264

[Difficulty]
HPDrainRate:5
CircleSize:4
OverallDifficulty:5
ApproachRate:5
SliderMultiplier:1.4
SliderTickRate:1

[Events]
//Background and Video events
0,0,"2013y07m11d_144138282.png",0,0
//Break Periods
//Storyboard Layer 0 (Background)
//Storyboard Layer 1 (Fail)
//Storyboard Layer 2 (Pass)
//Storyboard Layer 3 (Foreground)
//Storyboard Sound Samples
//Background Colour Transformations
3,100,163,162,255

[TimingPoints]
772,363.636363636364,4,1,0,80,1,0
12408,-100,4,1,0,60,0,0
21135,-100,4,1,0,80,0,0
53135,-100,4,1,0,80,0,1
82226,-100,4,1,0,50,0,0

[Colours]
Combo1 : 32,233,255
Combo2 : 255,66,70

[HitObjects]
256,192,772,5,6,0:0:0:0:
256,192,1317,1,4,0:0:0:0:
256,192,1862,1,2,0:0:0:0:
256,192,2044,1,0,0:0:0:0:
256,192,2226,1,2,0:0:0:0:
256,192,2408,1,0,0:0:0:0:
256,192,2590,1,0,0:0:0:0:
256,192,2772,1,0,0:0:0:0:
256,192,2953,1,2,0:0:0:0:
256,192,3135,1,0,0:0:0:0:
256,192,3317,1,0,0:0:0:0:
256,192,3681,1,4,0:0:0:0:
256,192,4226,1,6,0:0:0:0:
256,192,4772,1,2,0:0:0:0:
256,192,4953,1,0,0:0:0:0:
256,192,5135,1,2,0:0:0:0:
256,192,5317,1,2,0:0:0:0:
256,192,5499,1,0,0:0:0:0:
256,192,5681,1,0,0:0:0:0:
256,192,5862,1,2,0:0:0:0:
256,192,6044,1,2,0:0:0:0:
256,192,6226,1,0,0:0:0:0:
256,192,6590,1,6,0:0:0:0:
256,192,7135,1,4,0:0:0:0:
256,192,7681,1,2,0:0:0:0:
256,192,7862,1,0,0:0:0:0:
256,192,8044,1,2,0:0:0:0:
256,192,8226,1,0,0:0:0:0:
256,192,8408,1,2,0:0:0:0:
256,192,8590,1,0,0:0:0:0:
256,192,8772,1,0,0:0:0:0:
256,192,8862,1,0,0:0:0:0:
256,192,8953,1,0,0:0:0:0:
256,192,9044,1,0,0:0:0:0:
256,192,9135,1,2,0:0:0:0:
256,192,9499,1,6,0:0:0:0:
256,192,10044,1,0,0:0:0:0:
256,192,10135,1,0,0:0:0:0:
256,192,10226,1,2,0:0:0:0:
256,192,10953,1,4,0:0:0:0:
256,192,11681,1,6,0:0:0:0:
256,192,12408,1,0,0:0:0:0:
256,192,12590,1,2,0:0:0:0:
256,192,12772,1,0,0:0:0:0:
256,192,12953,1,2,0:0:0:0:
256,192,13135,1,0,0:0:0:0:
256,192,13317,1,2,0:0:0:0:
256,192,13408,1,2,0:0:0:0:
256,192,13499,1,0,0:0:0:0:
256,192,13681,1,2,0:0:0:0:
256,192,13862,1,0,0:0:0:0:
256,192,14044,1,2,0:0:0:0:
256,192,14226,1,0,0:0:0:0:
256,192,14408,1,2,0:0:0:0:
256,192,14499,1,2,0:0:0:0:
256,192,14590,1,0,0:0:0:0:
256,192,14772,1,2,0:0:0:0:
256,192,14953,1,2,0:0:0:0:
256,192,15135,1,0,0:0:0:0:
256,192,15317,1,2,0:0:0:0:
256,192,15408,1,2,0:0:0:0:
256,192,15499,1,0,0:0:0:0:
256,192,15681,1,0,0:0:0:0:
256,192,15862,1,2,0:0:0:0:
256,192,16044,1,0,0:0:0:0:
256,192,16226,1,2,0:0:0:0:
256,192,16408,1,2,0:0:0:0:
256,192,16590,1,0,0:0:0:0:
256,192,16772,1,2,0:0:0:0:
256,192,16953,1,0,0:0:0:0:
256,192,17044,1,0,0:0:0:0:
256,192,17135,1,0,0:0:0:0:
256,192,17317,1,2,0:0:0:0:
256,192,17499,1,0,0:0:0:0:
256,192,17681,1,6,0:0:0:0:
256,192,18226,1,0,0:0:0:0:
256,192,18590,1,0,0:0:0:0:
256,192,18953,1,2,0:0:0:0:
256,192,19681,1,0,0:0:0:0:
256,192,20044,1,0,0:0:0:0:
256,192,20408,1,2,0:0:0:0:
256,192,20772,1,2,0:0:0:0:
256,192,21135,1,0,0:0:0:0:
256,192,21317,1,0,0:0:0:0:
256,192,21499,1,0,0:0:0:0:
256,192,21681,1,0,0:0:0:0:
256,192,21862,1,6,0:0:0:0:
256,192,22590,1,0,0:0:0:0:
256,192,23681,1,2,0:0:0:0:
256,192,24044,1,4,0:0:0:0:
256,192,24226,1,0,0:0:0:0:
256,192,24408,1,2,0:0:0:0:
256,192,24590,1,0,0:0:0:0:
256,192,24681,1,0,0:0:0:0:
256,192,24772,1,0,0:0:0:0:
256,192,24953,1,0,0:0:0:0:
256,192,25135,1,2,0:0:0:0:
256,192,25499,1,0,0:0:0:0:
256,192,25681,1,0,0:0:0:0:
256,192,25862,1,2,0:0:0:0:
256,192,26044,1,0,0:0:0:0:
256,192,26135,1,2,0:0:0:0:
256,192,26226,1,0,0:0:0:0:
256,192,26408,1,0,0:0:0:0:
256,192,26590,1,2,0:0:0:0:
256,192,26772,1,2,0:0:0:0:
256,192,26953,1,0,0:0:0:0:
256,192,27317,1,2,0:0:0:0:
256,192,27499,1,2,0:0:0:0:
256,192,27590,1,2,0:0:0:0:
256,192,27681,1,0,0:0:0:0:
256,192,27862,1,0,0:0:0:0:
256,192,28044,1,2,0:0:0:0:
256,192,28226,1,0,0:0:0:0:
256,192,28408,1,2,0:0:0:0:
256,192,28499,1,2,0:0:0:0:
256,192,28590,1,0,0:0:0:0:
256,192,28681,1,0,0:0:0:0:
256,192,28772,1,0,0:0:0:0:
256,192,28953,1,2,0:0:0:0:
256,192,29135,1,0,0:0:0:0:
256,192,29317,1,6,0:0:0:0:
256,192,29862,1,0,0:0:0:0:
256,192,30044,1,0,0:0:0:0:
256,192,30226,1,2,0:0:0:0:
256,192,30408,1,0,0:0:0:0:
256,192,30499,1,2,0:0:0:0:
256,192,30590,1,0,0:0:0:0:
256,192,30772,1,0,0:0:0:0:
256,192,30862,1,0,0:0:0:0:
256,192,30953,1,2,0:0:0:0:
256,192,31135,1,2,0:0:0:0:
256,192,31317,1,0,0:0:0:0:
256,192,31681,1,2,0:0:0:0:
256,192,31862,1,0,0:0:0:0:
256,192,32044,1,2,0:0:0:0:
256,192,32226,1,2,0:0:0:0:
256,192,32408,1,0,0:0:0:0:
256,192,32590,1,2,0:0:0:0:
256,192,32772,1,0,0:0:0:0:
256,192,33135,1,2,0:0:0:0:
256,192,33499,1,0,0:0:0:0:
256,192,33681,1,2,0:0:0:0:
256,192,33772,1,2,0:0:0:0:
256,192,33862,1,0,0:0:0:0:
256,192,34044,1,2,0:0:0:0:
256,192,34226,1,4,0:0:0:0:
256,192,34590,1,0,0:0:0:0:
256,192,34772,1,6,0:0:0:0:
256,192,35135,1,0,0:0:0:0:
256,192,35317,1,2,0:0:0:0:
256,192,35408,1,2,0:0:0:0:
256,192,35499,1,2,0:0:0:0:
256,192,35681,1,4,0:0:0:0:
256,192,36044,1,0,0:0:0:0:
256,192,36408,1,2,0:0:0:0:
256,192,36772,1,2,0:0:0:0:
256,192,37135,1,0,0:0:0:0:
256,192,37317,1,2,0:0:0:0:
256,192,37499,1,0,0:0:0:0:
256,192,37681,1,0,0:0:0:0:
256,192,37862,1,2,0:0:0:0:
256,192,38590,1,0,0:0:0:0:
256,192,38953,1,2,0:0:0:0:
256,192,39317,1,2,0:0:0:0:
256,192,39681,1,0,0:0:0:0:
256,192,40044,1,0,0:0:0:0:
256,192,40226,1,2,0:0:0:0:
256,192,40408,1,0,0:0:0:0:
256,192,40590,1,0,0:0:0:0:
256,192,40772,1,2,0:0:0:0:
256,192,41135,1,2,0:0:0:0:
256,192,41317,1,2,0:0:0:0:
256,192,41499,1,0,0:0:0:0:
256,192,41862,1,0,0:0:0:0:
256,192,42226,1,2,0:0:0:0:
256,192,42590,1,2,0:0:0:0:
256,192,42953,1,0,0:0:0:0:
256,192,43135,1,2,0:0:0:0:
256,192,43317,1,0,0:0:0:0:
256,192,43499,1,0,0:0:0:0:
256,192,43681,1,2,0:0:0:0:
256,192,44044,1,2,0:0:0:0:
256,192,44226,1,2,0:0:0:0:
256,192,44317,1,2,0:0:0:0:
256,192,44408,1,0,0:0:0:0:
256,192,44590,1,0,0:0:0:0:
256,192,44772,1,2,0:0:0:0:
256,192,44953,1,0,0:0:0:0:
256,192,45044,1,0,0:0:0:0:
256,192,45135,1,0,0:0:0:0:
256,192,45317,1,0,0:0:0:0:
256,192,45499,1,2,0:0:0:0:
256,192,45862,1,0,0:0:0:0:
256,192,45953,1,0,0:0:0:0:
256,192,46044,1,0,0:0:0:0:
256,192,46226,1,2,0:0:0:0:
256,192,46408,1,2,0:0:0:0:
256,192,46499,1,2,0:0:0:0:
256,192,46590,1,0,0:0:0:0:
256,192,46772,1,0,0:0:0:0:
256,192,46953,1,2,0:0:0:0:
256,192,47317,1,0,0:0:0:0:
256,192,47499,1,0,0:0:0:0:
256,192,47681,1,2,0:0:0:0:
256,192,47772,1,2,0:0:0:0:
256,192,47862,1,0,0:0:0:0:
256,192,48044,1,0,0:0:0:0:
256,192,48226,1,0,0:0:0:0:
256,192,48408,1,2,0:0:0:0:
256,192,48590,1,0,0:0:0:0:
256,192,48772,1,2,0:0:0:0:
256,192,48862,1,2,0:0:0:0:
256,192,49044,1,2,0:0:0:0:
256,192,49135,1,2,0:0:0:0:
256,192,49317,1,0,0:0:0:0:
256,192,49499,1,2,0:0:0:0:
256,192,49590,1,0,0:0:0:0:
256,192,49772,1,2,0:0:0:0:
256,192,49862,1,0,0:0:0:0:
256,192,50044,1,2,0:0:0:0:
256,192,50226,1,4,0:0:0:0:
256,192,50953,1,4,0:0:0:0:
256,192,51681,1,6,0:0:0:0:
256,192,53135,1,4,0:0:0:0:
256,192,53317,1,0,0:0:0:0:
256,192,53499,1,2,0:0:0:0:
256,192,53681,1,2,0:0:0:0:
256,192,53772,1,0,0:0:0:0:
256,192,53862,1,0,0:0:0:0:
256,192,54226,1,2,0:0:0:0:
256,192,54408,1,0,0:0:0:0:
256,192,54499,1,2,0:0:0:0:
256,192,54590,1,0,0:0:0:0:
256,192,54772,1,0,0:0:0:0:
256,192,54953,1,2,0:0:0:0:
256,192,55135,1,2,0:0:0:0:
256,192,55226,1,2,0:0:0:0:
256,192,55317,1,0,0:0:0:0:
256,192,55499,1,0,0:0:0:0:
256,192,55681,1,2,0:0:0:0:
256,192,55862,1,0,0:0:0:0:
256,192,56044,1,0,0:0:0:0:
256,192,56135,1,2,0:0:0:0:
256,192,56226,1,0,0:0:0:0:
256,192,56317,1,0,0:0:0:0:
256,192,56408,1,2,0:0:0:0:
256,192,56590,1,2,0:0:0:0:
256,192,56772,1,0,0:0:0:0:
256,192,57135,1,2,0:0:0:0:
256,192,57317,1,0,0:0:0:0:
256,192,57408,1,0,0:0:0:0:
256,192,57499,1,2,0:0:0:0:
256,192,57681,1,0,0:0:0:0:
256,192,57862,1,2,0:0:0:0:
256,192,58226,1,0,0:0:0:0:
256,192,58590,1,6,0:0:0:0:
256,192,58953,1,0,0:0:0:0:
256,192,59135,1,0,0:0:0:0:
256,192,59317,1,2,0:0:0:0:
256,192,59499,1,0,0:0:0:0:
256,192,59590,1,0,0:0:0:0:
256,192,59681,1,0,0:0:0:0:
256,192,59862,1,0,0:0:0:0:
256,192,60044,1,2,0:0:0:0:
256,192,60408,1,0,0:0:0:0:
256,192,60590,1,0,0:0:0:0:
256,192,60772,1,2,0:0:0:0:
256,192,60953,1,2,0:0:0:0:
256,192,61044,1,2,0:0:0:0:
256,192,61135,1,0,0:0:0:0:
256,192,61317,1,0,0:0:0:0:
256,192,61499,1,2,0:0:0:0:
256,192,61862,1,0,0:0:0:0:
256,192,62044,1,0,0:0:0:0:
256,192,62135,1,0,0:0:0:0:
256,192,62226,1,2,0:0:0:0:
256,192,62408,1,0,0:0:0:0:
256,192,62499,1,0,0:0:0:0:
256,192,62590,1,2,0:0:0:0:
256,192,62772,1,0,0:0:0:0:
256,192,62953,1,2,0:0:0:0:
256,192,63135,1,0,0:0:0:0:
256,192,63317,1,2,0:0:0:0:
256,192,63408,1,2,0:0:0:0:
256,192,63499,1,2,0:0:0:0:
256,192,63590,1,2,0:0:0:0:
256,192,63681,1,0,0:0:0:0:
256,192,63862,1,2,0:0:0:0:
256,192,63953,1,2,0:0:0:0:
256,192,64044,1,2,0:0:0:0:
256,192,64135,1,2,0:0:0:0:
256,192,64226,1,0,0:0:0:0:
256,192,64408,1,6,0:0:0:0:
256,192,64772,1,4,0:0:0:0:
256,192,64954,1,0,0:0:0:0:
256,192,65136,1,2,0:0:0:0:
256,192,65318,1,2,0:0:0:0:
256,192,65409,1,0,0:0:0:0:
256,192,65499,1,0,0:0:0:0:
256,192,65863,1,2,0:0:0:0:
256,192,66045,1,0,0:0:0:0:
256,192,66136,1,2,0:0:0:0:
256,192,66227,1,0,0:0:0:0:
256,192,66409,1,0,0:0:0:0:
256,192,66590,1,2,0:0:0:0:
256,192,66772,1,2,0:0:0:0:
256,192,66863,1,2,0:0:0:0:
256,192,66954,1,0,0:0:0:0:
256,192,67136,1,0,0:0:0:0:
256,192,67318,1,2,0:0:0:0:
256,192,67499,1,0,0:0:0:0:
256,192,67681,1,0,0:0:0:0:
256,192,67772,1,2,0:0:0:0:
256,192,67862,1,0,0:0:0:0:
256,192,67953,1,0,0:0:0:0:
256,192,68045,1,2,0:0:0:0:
256,192,68226,1,2,0:0:0:0:
256,192,68409,1,0,0:0:0:0:
256,192,68772,1,0,0:0:0:0:
256,192,68953,1,2,0:0:0:0:
256,192,69044,1,2,0:0:0:0:
256,192,69135,1,0,0:0:0:0:
256,192,69317,1,0,0:0:0:0:
256,192,69499,1,2,0:0:0:0:
256,192,69681,1,2,0:0:0:0:
256,192,69862,1,0,0:0:0:0:
256,192,69953,1,0,0:0:0:0:
256,192,70044,1,0,0:0:0:0:
256,192,70135,1,0,0:0:0:0:
256,192,70226,1,2,0:0:0:0:
256,192,70590,1,0,0:0:0:0:
256,192,70772,1,0,0:0:0:0:
256,192,70953,1,2,0:0:0:0:
256,192,71135,1,0,0:0:0:0:
256,192,71226,1,2,0:0:0:0:
256,192,71317,1,0,0:0:0:0:
256,192,71499,1,0,0:0:0:0:
256,192,71681,1,2,0:0:0:0:
256,192,72044,1,2,0:0:0:0:
256,192,72135,1,2,0:0:0:0:
256,192,72226,1,0,0:0:0:0:
256,192,72408,1,2,0:0:0:0:
256,192,72590,1,0,0:0:0:0:
256,192,72772,1,2,0:0:0:0:
256,192,72953,1,0,0:0:0:0:
256,192,73135,1,0,0:0:0:0:
256,192,73226,1,0,0:0:0:0:
256,192,73317,1,0,0:0:0:0:
256,192,73408,1,0,0:0:0:0:
256,192,73499,1,2,0:0:0:0:
256,192,73863,1,0,0:0:0:0:
256,192,74044,1,6,0:0:0:0:
256,192,74408,1,4,0:0:0:0:
256,192,74772,1,6,0:0:0:0:
256,192,76408,1,4,0:0:0:0:
256,192,76772,1,2,0:0:0:0:
256,192,77135,1,0,0:0:0:0:
256,192,77499,1,0,0:0:0:0:
256,192,77862,1,2,0:0:0:0:
256,192,78226,1,0,0:0:0:0:
256,192,78590,1,0,0:0:0:0:
256,192,78772,1,0,0:0:0:0:
256,192,78953,1,2,0:0:0:0:
256,192,79317,1,2,0:0:0:0:
256,192,79499,1,0,0:0:0:0:
256,192,79681,1,0,0:0:0:0:
256,192,79862,1,0,0:0:0:0:
256,192,80044,1,0,0:0:0:0:
256,192,80135,1,0,0:0:0:0:
256,192,80226,1,0,0:0:0:0:
256,192,80408,1,2,0:0:0:0:
256,192,80590,1,0,0:0:0:0:
256,192,80772,1,2,0:0:0:0:
256,192,80953,1,0,0:0:0:0:
256,192,81135,1,0,0:0:0:0:
256,192,81317,1,0,0:0:0:0:
256,192,81499,1,2,0:0:0:0:
256,192,81681,1,0,0:0:0:0:
256,192,81862,1,2,0:0:0:0:
256,192,81953,1,2,0:0:0:0:
256,192,82044,1,2,0:0:0:0:
256,192,82135,1,2,0:0:0:0:
256,192,82226,1,0,0:0:0:0:
256,192,82953,1,2,0:0:0:0:
256,192,83681,1,0,0:0:0:0:
256,192,84408,1,0,0:0:0:0:
256,192,84772,1,2,0:0:0:0:
256,192,85862,1,0,0:0:0:0:
256,192,86226,1,2,0:0:0:0:
256,192,87317,1,2,0:0:0:0:
256,192,87681,1,0,0:0:0:0:
256,192,88044,1,0,0:0:0:0:
